Jump to content

Chesterchaz

VIP
  • Content Count

    440
  • Joined

  • Last visited

About Chesterchaz

  • Rank
    Veteran
  • Birthday 08/07/1987

Profile Information

  • Gender
    Male
  • Location
    Hamburg, Germany

Recent Profile Visitors

773 profile views
  1. Unreleased PR04 IEM, can't get much better than this Thanks Felipe!
  2. LOL I came here to post this exactly. Glad to have like-minded persons <3
  3. Geki spoiled it... Wait, that's a virus page too, right?
  4. Yeah, seriously, why did no one reply yet and put a link ?! tempted to post a Mediafire link... ¯\_(ツ)_/¯
  5. We got 24 snatches so far, I seeded 952GB and LP-Bits got 49 new users according to their stats page!
  6. It's up: http://lp-bits.com/details.php?id=673
  7. Mark stopped uploading to my FTP about a month ago, I dunno if he forgot about it, has bandwidth issues or lost his external^^ He's welcome to continue to upload, so we can create a master torrent eventually.
  8. I'm in favor of going the "master torrent on LP bits" route. To check for corrupted files during the upload process I wanted to run a md5/sfv before torrent creation.
  9. I'd offer my help (dedicated server) to get this seeded/distributed and to keep it alive afterwards.
  10. A 22.62GB torrent of the 4K broadcast is available at rutracker, on it with two webseeds. Let's do that TB! I'll upload it to LP-Bits once it's done (it'll take some hours), if no one else does it. General ID : 1035 (0x40B) Complete name : O:\LinkinPark_UHD4k\03_Linkin Park20141120 0022 - Astra Ultra HD Demo - instant record.ts Format : MPEG-TS File size : 21.3 GiB Duration : 1h 37mn Overall bit rate mode : Variable Overall bit rate : 31.2 Mbps Video ID : 210 (0xD2) Menu ID : 2 (0x2) Format : HEVC Format/Info : High Efficiency Video Coding Format profile : Main@L5.1 Codec ID : 36 Duration : 1h 37mn Bit rate : 29.5 Mbps Width : 3 840 pixels Height : 2 160 pixels Display aspect ratio : 16:9 Frame rate : 50.000 fps Color space : YUV Chroma subsampling : 4:2:0 Bit depth : 8 bits Bits/(Pixel*Frame) : 0.071 Stream size : 20.2 GiB (94%) Audio ID : 220 (0xDC) Menu ID : 2 (0x2) Format : MPEG Audio Format version : Version 1 Format profile : Layer 2 Codec ID : 3 Duration : 1h 37mn Bit rate mode : Constant Bit rate : 192 Kbps Channel(s) : 2 channels Sampling rate : 48.0 KHz Compression mode : Lossy Delay relative to video : -1s 201ms Stream size : 134 MiB (1%) Menu ID : 257 (0x101) Menu ID : 2 (0x2) Duration : 1h 37mn List : 210 (0xD2) (HEVC) / 220 (0xDC) (MPEG Audio)
  11. Thanks! His notes are worth reading as well.
  12. Good sounding recording! Here's a MP3 encode: 2014-08-21 - Darien Center, NY, Darien Lake Performing Arts Center [VBR] http://www51.zippyshare.com/v/89404533/file.html
×
×
  • Create New...