Jump to content

lpliveusername

Staff
  • Content Count

    3,287
  • Joined

  • Last visited

2 Followers

About lpliveusername

  • Rank
    Rebel

Profile Information

  • Gender
    Not Telling
  • Slugline
    Linkinpedia Team

Recent Profile Visitors

3,873 profile views
  1. DJ Z-Trip was broadcasting on Twitch on July 2nd to celebrate the 15th anniversary of his debut studio album Shifting Gears. He told stories about each track on the album, played demos, unreleased tracks and performed the songs. Among the demos was a vocal recording of Chester Bennington recorded in the tour bus as a draft when he was touring with Linkin Park.Chester rode with DJ Z-Trip from one show to the next and recorded the demo on the bus. He also revealed Mike Shinoda helped a little with the arrangement and showed a couple of pictures. The first is from Coachella 2005 and the second is a review of Wantagh 2004. We extracted just the part about "Walking Dead" for you guys as well as the audio of Chester's vocal demo and the performance. He played the same version he did at the Hollywood Bowl show. Download video: WeTransfer (18:21 mins | .mkv | 446 MB) Download Walking Dead: WeTransfer (4:46 mins | .mp3 | 10.9 MB) Download demo: WeTransfer (0:34 mins | .mp3 | 1.31 MB) Linkinpedia page: http://linkinpedia.com/index.php?title=Walking_Dead Enjoy!
  2. There are no photos / videos with Ian out there as far as I know. This video was filmed very early in 1999 as they were still playing the original version of Esaul. From what we've heard, Ian auditioned for the band when they were recording Hybrid Theory. This is likely Kyle in the video.
  3. Yes. I interviewed Scott in 2009 and he told me that's him in the video.
  4. This is so weird. Just out of curiosity: where did you purchase your CD? I checked CDJapan and HMV Japan again and they both have Sickness acoustic in the tracklist. Maybe they had different versions for these stores?
  5. In case anyone is interested: 01. Sickness (feat. Page Hamilton) - Producer: Pete Nappi 02. Sometimes (feat. Chris Traynor and Jamie Muhoberac) - Producer: Chris Traynor, Kyle Hoffmann 03. What's In The Eye (feat. Marcos Curiel and Chris Traynor) - Producer: Chris Traynor, Kyle Hoffmann 04. The Syndrome (feat. Carah Faye and Carston Dowdell) - Producer: Esjay Jones, Lucas D'Angelo 05. In Time (feat. Ryan Shuck) - Producer: Lucio Rubino 06. Just Like Heroin (feat. Chris Traynor and Jamie Muhoberac) - Producer: Chris Traynor, Esjay Jones, Lucas D'Angelo 07. B12 (feat. Brian “Head” Welch, James "Munky" Shaffer and Brennen Brochard) - Producer: Alex Aldi 08. Soul Song (feat. Jaime Bennington, Chris Traynor, Jean Yves D’Angelo and Heidi Gadd) - Producer: Esjay Jones, Lucas D'Angelo 09. Morei Sky (feat. Jean Yves D’Angelo and Heidi Gadd) - Producer: Esjay Jones, Lucas D'Angelo 10. She Shines (feat. Brian “Head” Welch and Jasen Rauch) - Producer: Esjay Jones, Lucas D'Angelo 11. Shouting Out (feat. Laura "LP" Pergolizzi) - Producer: Cass Dillon
  6. They got Cristin as a second guitarist for the show. They were rehearsing with him before Chester passed.
  7. Tonight, at 9 p.m. ET/6 p.m. PT, Inked Magazine will premiere “Shouting Out,” a Grey Daze roundtable album special hosted by Dave Navarro and featuring Korn’s Brian “Head” Welch, Bush's Chris Traynor and more. They discuss Chester Bennington’s musical roots and the story behind Grey Daze’s upcoming album ‘Amends,’ due June 26th. Listen to the 'Amends' album in full on Kerrang!'s Facebook this Thursday, the day before it's released. Grey Daze will be joining and giving live commentaries.
  8. Yes! I loved that EP. She said she kinda wanted to get back to her roots and do something influenced by the 70s music she loved. Her best work since the Holly Brook days.
  9. Translation of the intro: “This was LP's 3rd time at SS. In 2013, Metallica and Muse had been decided as the headlining acts (on alternate days). LP actually requested to perform in 2013, even though they'd be 'under' Metallica, rather than perform in 2014 as had been planned. This was really surprising that the band was okay with it, but that's how we ended up with a 'double headliner'. Their performance was absolutely amazing and the audience was so into it. Actually, after this performance in 2013, they never ended up returning to perform in Japan... due to the passing of Chester in 2017. So that makes this video even more special and important. A particular memory I (Sascha) have is, by 2013 Chester had gotten married. At the end the performance, there were fireworks and Chester's wife came to the side of the stage to wait for the guys. While watching the fireworks, Chester and his wife kissed. The scene was like a beautiful picture! I think the band members were completely satisfied with their performance and that they were able to create great memories for their fans in Japan.”
  10. You can still watch it. It will be up for 24 hours.
  11. Download (679 MB): https://we.tl/t-K5FpByTWRi MediaInfo: Format : MPEG-4 Format profile : Base Media Codec ID : isom (isom/iso2/avc1/mp41) File size : 680 MiB Duration : 21 min 44 s Overall bit rate : 4 371 kb/s Writing application : Lavf58.46.101 Video ID : 1 Format : AVC Format/Info : Advanced Video Codec Format profile : High@L4 Format settings : CABAC / 3 Ref Frames Format settings, CABAC : Yes Format settings, Reference fra : 3 frames Codec ID : avc1 Codec ID/Info : Advanced Video Coding Duration : 21 min 44 s Bit rate : 4 236 kb/s Width : 1 920 pixels Height : 1 080 pixels Display aspect ratio : 16:9 Frame rate mode : Constant Frame rate : 29.970 (30000/1001) FPS Color space : YUV Chroma subsampling : 4:2:0 Bit depth : 8 bits Scan type : Progressive Bits/(Pixel*Frame) : 0.068 Stream size : 659 MiB (97%) Title : ISO Media file produced by Google Inc. Color range : Limited Color primaries : BT.709 Transfer characteristics : BT.709 Matrix coefficients : BT.709 Codec configuration box : avcC Audio ID : 2 Format : AAC LC Format/Info : Advanced Audio Codec Low Complexity Codec ID : mp4a-40-2 Duration : 21 min 44 s Bit rate mode : Constant Bit rate : 128 kb/s Channel(s) : 2 channels Channel layout : L R Sampling rate : 44.1 kHz Frame rate : 43.066 FPS (1024 SPF) Compression mode : Lossy Stream size : 19.9 MiB (3%) Title : ISO Media file produced by Google Inc. Language : English Default : Yes Alternate group : 1
  12. Blue, Slip and, I assume, So Far Away came from a CD Mike found in his closet and, according to him, were the first recordings with Chester. The reason Mike thinks Chester joined the band in 1998 seems to be the fact he was still in college at the time (1, 2), but if I recall correctly Mike finished college in 1999 right after Chester joined. Edit: Nope, he graduated in 1998: http://www.artcenter.edu/about/support/storyboard/mike-shinoda.html
  13. Linkin Park signed a bunch of artists to their label Machine Shop Recordings which was owned by Warner. Warner decided to fuck Machine Shop and this fucked the artists signed to the label. The artists blamed Mike.
  14. Acoustic performance of Cast Into The Sea streamed on May 09, 2020 as part of 320 Festival Day 2. The video was likely recorded before that because Ryan was in rehab. Download (MKV 67.6 MB)
×
×
  • Create New...