Jump to content

LPMaskMan

Member
  • Content Count

    1,118
  • Joined

  • Last visited

About LPMaskMan

  • Rank
    Icon

Previous Fields

  • LP Shows Attended
    2014.11.14. Wien 2017.06.27. Sopron (+meet&greet) MS 2018.09.07. Wien

Contact Methods

  • Website URL
    http://gasmask1.uw.hu

Profile Information

  • Gender
    Male
  • Location
    Hungary
  • Interests
    gas masks, concert recordings, music

Recent Profile Visitors

The recent visitors block is disabled and is not being shown to other users.

  1. I also recorded the live stream too, but it's lower quelity than the replay, it's in 720p. deleted it, since the quality is inferior, so don't request it.
  2. Yes, this one. I wonder where it was sourced. Maybe another unreleased track or contains samples from somewhere... Also the Docklands intro was cool too.
  3. And what was the intro that used during the 2003 shows? Starts with humming and then the beat kicks in.
  4. Thank you for those original! No shitty DVDs, just the raw stuff. Always nice to have the source.
  5. The 4GB version is inferior to 1,75GB version. The big one is most likely captured from analog source and the small one is pure DVB-S stream muxed into DVD.
  6. https://lplive.net/shows/2001/20010116 Source 1b: Video - PROSHOT (NBC) Time: 2:56 mins Format: DVD(M) Comments: A few seconds longer than the VCD version (shows Conan with a copy of Hybrid Theory just after he introduces the band). DVD version was uncirculated until 2014 when it was obtained by Biel. https://mega.nz/#!9EwnmawK!0QbvdxaMYrqpfOjGKQXs-jzEMoqKU9hCTeeMDH3_kL0
  7. I remember downloading it from linkin inside. Yes, it's small resolution, but at least it's a digital capture not some VHS degraded stuff.
  8. Leak somewhere else on a not so known website so randomly.
  9. So sad. We have lost somebody important who could release upgrades to us.
  10. I remember it was around 2004-2005. I first heard about it back in 2005 I guess.
  11. By request, here is the VCD file. https://mega.nz/#!gE4iQahJ!0SvyEfW0NLaPczl5FmRpdvf7_VkAjp-sJbhEwaZ9Y88 General Complete name : Linkin_Park-Live_In_Montreal_Quebec-0720-2003-PMSVCD.mpg Format : MPEG-PS File size : 648 MiB Duration : 1 h 4 min Overall bit rate mode : Constant Overall bit rate : 1 394 kb/s Video ID : 224 (0xE0) Format : MPEG Video Format version : Version 1 Format settings : CustomMatrix / BVOP Format settings, BVOP : Yes Format settings, Matrix : Custom Format settings, GOP : M=3, N=18 Duration : 1 h 4 min Bit rate mode : Constant Bit rate : 1 150 kb/s Width : 352 pixels Height : 240 pixels Display aspect ratio : 4:3 Frame rate : 29.970 (30000/1001) FPS Standard : NTSC Color space : YUV Chroma subsampling : 4:2:0 Bit depth : 8 bits Scan type : Progressive Compression mode : Lossy Bits/(Pixel*Frame) : 0.454 Time code of first frame : 00:00:00:00 Time code source : Group of pictures header GOP, Open/Closed : Open GOP, Open/Closed of first fram : Closed Stream size : 531 MiB (82%) Audio ID : 192 (0xC0) Format : MPEG Audio Format version : Version 1 Format profile : Layer 2 Duration : 1 h 4 min Bit rate mode : Constant Bit rate : 224 kb/s Channel(s) : 2 channels Sampling rate : 44.1 kHz Frame rate : 38.281 FPS (1152 SPF) Compression mode : Lossy Stream size : 104 MiB (16%)
  12. Looks like the venue was so dark so I think the filmer used night mode on the camcorder to shot this video.
×
×
  • Create New...