Jump to content

AlexandrS

Member
  • Posts

    95
  • Joined

  • Last visited

About AlexandrS

  • Birthday 07/23/1988

Previous Fields

  • LP Shows Attended
    2009.07.26 - St. Petersburg, RU, Telebashnya Stadium Tuborg Greenfest 2011.06.23 - Moscow, RU, Red Square Transformers 3 Premiere 2012.06.10 - Moscow, RU, Maxidrom 2012: Linkin Park (+Meet&Greet), The Rasmus,Clawfinger, Therapy 2012.06.14 - St. Petersburg, RU, SKK, Linkin Park (+Meet&Greet) 2014.06.01 - St. Petersburg, RU, Petrovsky Stadium 2014.06.02 - Moscow, RU, Sports Complex Olympiysky 2015.08.29 - Moscow, RU, Sports Complex Olympiysky

Profile Information

  • Gender
    Male
  • Location
    Russia

Recent Profile Visitors

455 profile views
  1. Interesting tracks. Mike well done. Super I note: Razors Out (feat Chino Moreno) Suicide Music (feat Get Busy Committee) Drug Lab
  2. Rip from YouKu by me =) Audio and video quality - the average Linkin Park - iTunes Festival, London, England (04.07.2011) (YouKu) (Rip by AlexandrS).flvFormat : Flash VideoFile size : 184 MiBDuration : 1h 40mnOverall bit rate : 255 KbpsTagging application : ikuVideoFormat : AVCFormat/Info : Advanced Video CodecFormat profile : Main@L3.1Format settings, CABAC : YesFormat settings, ReFrames : 9 framesMuxing mode : Container profile=Unknown@3.1Duration : 1h 40mnBit rate : 213 KbpsNominal bit rate : 218 KbpsWidth : 512 pixelsHeight : 288 pixelsDisplay aspect ratio : 16/9Frame rate : 15.000 fpsResolution : 24 bitsColorimetry : 4:2:0Scan type : ProgressiveBits/(Pixel*Frame) : 0.097Stream size : 158 MiB (86%)Writing library : x264 core 54AudioFormat : AACFormat/Info : Advanced Audio CodecFormat version : Version 4Format profile : LCFormat settings, SBR : YesFormat settings, PS : NoDuration : 1h 40mnBit rate : 31.6 KbpsChannel(s) : 2 channelsChannel positions : L RSampling rate : 44.1 KHzResolution : 16 bitsStream size : 24.6 MiB (13%) http://www.megaupload.com/?d=ECYNKQ5L Password
  3. Ticket no. There were flyers and electronic certificates are exchanged for wristbands. The entrance was on the bracelets My flyer http://cs10677.vkontakte.ru/u11295962/1359.../z_58fbc5f0.jpg
  4. bazinga!.com - it's a different story. In terms of information and content - I agree. they have long been "popular" in this regard. all claims - to the leadership of the site. The merit of this site is that they chose the most feasible scenario, and informed people about the flash mob, because in spite of his "popularity" - is the most visited Russian-language resource. But all the options for the flash mob - only fans. about the fact that words are not raised in that song - the effect of the crowd. Several people have confused the song and raised leaflets, and the rest of the people - Have simply picked up them. Peace =)
  5. Why are you so against Russia? We have two gorgeous flash mob (with words and with confetti), and both turned out to cheer! I do not understand your aversion to us. I was there and it was amazing. If you saw the reaction of the group, especially Mike and Chester! Give me a link to a video or a photo where someone did flash mob at the concert Linkin Park. ? The people were a bit due to poor organization distributing tickets Radio NRJ, which is why half the people were generally not fans of the group. And fans who wanted to get from other cities, just could not get tickets. Those who were able to get the tickets came from other parts of Russia for 5000-10000 miles It is WORTH RESPECT for fans from Russia thanks
  6. Good work man. Many thanks for "Figure.09", i like it=)
×
×
  • Create New...