Jump to content

Moain_LP

Member
  • Posts

    11
  • Joined

  • Last visited

About Moain_LP

  • Birthday 03/24/1995

Contact Methods

  • Website URL
    http://lparsi.ir

Profile Information

  • Gender
    Male

Recent Profile Visitors

379 profile views
  1. I changed the system date and the timer ended but still nothing happens.
  2. If u can't watch it from FB like me. You can watch it from yandex: https://disk.yandex.ru/i/yAcDbeHLeHid4A
  3. No because I didnt know that broadcasting time. And I realized too late. and i try to record mtv asks linkin park but i dont know why didnt show. sry for my bad english
  4. Finally i record it from MTV Live HD. see that video capture and info. Maybe i can upload it General ID : 12800 (0x3200) Complete name : D:\[TS]MTV Live HD[11-10-2014.19.30.00]\MTV Live HD - The Ride.ts Format : MPEG-TS File size : 3.68 GiB Duration : 46mn 6s Start time : UTC 2014-10-11 16:00:26 End time : UTC 2014-10-11 16:46:32 Overall bit rate mode : Variable Overall bit rate : 11.4 Mbps Network name : MTV Networks 13.0East Original network name : Eutelsat Satellite System at 13'E Country : POL Timezone : +02:00:00 Frequency : 11075000000 OrbitalPosition : 13.0E Video ID : 1011 (0x3F3) Menu ID : 1 (0x1) Format : AVC Format/Info : Advanced Video Codec Format profile : Main@L4.0 Format settings, CABAC : Yes Format settings, ReFrames : 4 frames Codec ID : 27 Duration : 46mn 6s Bit rate : 10.2 Mbps Width : 1 920 pixels Height : 1 080 pixels Display aspect ratio : 16:9 Frame rate : 25.000 fps Color space : YUV Chroma subsampling : 4:2:0 Bit depth : 8 bits Scan type : Interlaced Bits/(Pixel*Frame) : 0.197 Stream size : 3.29 GiB (89%) Encryption : Encrypted Color primaries : BT.709 Transfer characteristics : BT.709 Matrix coefficients : BT.709 Audio #1 ID : 1012 (0x3F4) Menu ID : 1 (0x1) Format : MPEG Audio Format version : Version 1 Format profile : Layer 2 Codec ID : 4 Duration : 46mn 6s Bit rate mode : Constant Bit rate : 256 Kbps Channel(s) : 2 channels Sampling rate : 48.0 KHz Compression mode : Lossy Delay relative to video : -1s 404ms Stream size : 84.4 MiB (2%) Language : English Encryption : Encrypted Audio #2 ID : 1013 (0x3F5) Menu ID : 1 (0x1) Format : AC-3 Format/Info : Audio Coding 3 Mode extension : CM (complete main) Format settings, Endianness : Big Codec ID : 6 Duration : 46mn 6s Bit rate mode : Constant Bit rate : 384 Kbps Channel(s) : 6 channels Channel positions : Front: L C R, Side: L R, LFE Sampling rate : 48.0 KHz Bit depth : 16 bits Compression mode : Lossy Delay relative to video : -1s 404ms Stream size : 127 MiB (3%) Language : English Encryption : Encrypted Menu ID : 1010 (0x3F2) Menu ID : 1 (0x1) Duration : 46mn 6s List : 1011 (0x3F3) (AVC) / 1012 (0x3F4) (MPEG Audio, English) / 1013 (0x3F5) (AC-3, English) / 213 (0xD5) () / 208 (0xD0) () Language : / English / English Service name : MTV Live HD Service provider : MTV Networks Europe Service type : advanced codec HD digital television
  5. Moain_LP

    LPL + You

    maybe i can donat from iran
  6. Here is the new LPTV check it below:
  7. live stream concert on this site: http://transmisje-online-live-stream.blogspot.de/2014/06/koncert-linkin-park-05.html
×
×
  • Create New...