Jump to content
Sign in to follow this  
LPLStaff

Summer Sonic 2013 Webcast Stream

Recommended Posts

Good news, Linkin Park fans.

 

Continuing the trend of festivals streaming Linkin Park material, Summer Sonic has announced a stream this weekend and Linkin Park is included. It says that selections from the 2013 set by LP will be aired. A few songs were broadcasted from this show, but you never know - something we don't have might be included. It's always great to see LP, too.

 

Check the YouTube video below for the full schedule.

 

 

There will also be a 40 minute WOWOW TV broadcast from Summer Sonic 2013 later this month of Linkin Park too.

 

EDIT: 

Tracklist:

 

Given Up

Lost In The Echo

Numb

Burn It Down

In The End

 

Don't remember this show? The band was on fire in Japan... just take a look at this epic "Lost In The Echo" performance.

 

 

Share this post


Link to post
Share on other sites
Posted (edited)
4 hours ago, Aliga said:

Does anyone record the live feed?

I don't think so

What a great news. I always commenting on their FB's posts to broadcast SS06

Edited by lpplus

Share this post


Link to post
Share on other sites

Their 2006 performance is one of my favorites ever. 2013 was also cool. I didn't like the camera work on some of the sources, though. I hope we get a decent webcast with songs other than the ones we already have the footage of.

Share this post


Link to post
Share on other sites

Since it's 2020, is there a way that anyone knows of where I can pay $ to get a WOWOW stream here in the USA somehow? Or get it on my TV? Surely there's some possibility to do this.

 

I'm looking forward to this stream because we don't have some of these songs that even already aired.

 

I hope they show Castle of Glass, but if they show whatever has already aired, at least we will get an upgrade because we are 1) missing songs, and 2) in a spot where we don't have all of the stuff as one source.

Share this post


Link to post
Share on other sites

You can see in the description of the video which songs were played in the broadcast... and the songs are: given up & in the end.. 

Share this post


Link to post
Share on other sites
Posted (edited)

The only song we don't have from this show's proshot sources is In The End

But I would like to see APFMH and Papercut with a good audio edit. all you can hear is Dave's bass

my youtube-dl is kinda messed up these days so someone please try to record it

man look at the end of this setlist: ITE, BIO, Faint, OSC
 

Edited by lpplus

Share this post


Link to post
Share on other sites

Download (679 MB)https://we.tl/t-K5FpByTWRi

 

MediaInfo:

Format                         : MPEG-4
Format profile                 : Base Media
Codec ID                       : isom (isom/iso2/avc1/mp41)
File size                      : 680 MiB
Duration                       : 21 min 44 s
Overall bit rate               : 4 371 kb/s
Writing application            : Lavf58.46.101

 

Video
ID                             : 1
Format                         : AVC
Format/Info                    : Advanced Video Codec
Format profile                 : High@L4
Format settings                : CABAC / 3 Ref Frames
Format settings, CABAC         : Yes
Format settings, Reference fra : 3 frames
Codec ID                       : avc1
Codec ID/Info                  : Advanced Video Coding
Duration                       : 21 min 44 s
Bit rate                       : 4 236 kb/s
Width                          : 1 920 pixels
Height                         : 1 080 pixels
Display aspect ratio           : 16:9
Frame rate mode                : Constant
Frame rate                     : 29.970 (30000/1001) FPS
Color space                    : YUV
Chroma subsampling             : 4:2:0
Bit depth                      : 8 bits
Scan type                      : Progressive
Bits/(Pixel*Frame)             : 0.068
Stream size                    : 659 MiB (97%)
Title                          : ISO Media file produced by Google Inc.
Color range                    : Limited
Color primaries                : BT.709
Transfer characteristics       : BT.709
Matrix coefficients            : BT.709
Codec configuration box        : avcC

 

Audio
ID                             : 2
Format                         : AAC LC
Format/Info                    : Advanced Audio Codec Low Complexity
Codec ID                       : mp4a-40-2
Duration                       : 21 min 44 s
Bit rate mode                  : Constant
Bit rate                       : 128 kb/s
Channel(s)                     : 2 channels
Channel layout                 : L R
Sampling rate                  : 44.1 kHz
Frame rate                     : 43.066 FPS (1024 SPF)
Compression mode               : Lossy
Stream size                    : 19.9 MiB (3%)
Title                          : ISO Media file produced by Google Inc.
Language                       : English
Default                        : Yes
Alternate group                : 1
 

Share this post


Link to post
Share on other sites
58 minutes ago, Comfortinthepanic92 said:

How was it ? Missed it due to the time, in Italy is Saturday morning 

You can still watch it. It will be up for 24 hours.

Share this post


Link to post
Share on other sites
2 hours ago, lpliveusername said:

Download (679 MB)https://we.tl/t-K5FpByTWRi

 

MediaInfo:

Format                         : MPEG-4
Format profile                 : Base Media
Codec ID                       : isom (isom/iso2/avc1/mp41)
File size                      : 680 MiB
Duration                       : 21 min 44 s
Overall bit rate               : 4 371 kb/s
Writing application            : Lavf58.46.101

 

Video
ID                             : 1
Format                         : AVC
Format/Info                    : Advanced Video Codec
Format profile                 : High@L4
Format settings                : CABAC / 3 Ref Frames
Format settings, CABAC         : Yes
Format settings, Reference fra : 3 frames
Codec ID                       : avc1
Codec ID/Info                  : Advanced Video Coding
Duration                       : 21 min 44 s
Bit rate                       : 4 236 kb/s
Width                          : 1 920 pixels
Height                         : 1 080 pixels
Display aspect ratio           : 16:9
Frame rate mode                : Constant
Frame rate                     : 29.970 (30000/1001) FPS
Color space                    : YUV
Chroma subsampling             : 4:2:0
Bit depth                      : 8 bits
Scan type                      : Progressive
Bits/(Pixel*Frame)             : 0.068
Stream size                    : 659 MiB (97%)
Title                          : ISO Media file produced by Google Inc.
Color range                    : Limited
Color primaries                : BT.709
Transfer characteristics       : BT.709
Matrix coefficients            : BT.709
Codec configuration box        : avcC

 

Audio
ID                             : 2
Format                         : AAC LC
Format/Info                    : Advanced Audio Codec Low Complexity
Codec ID                       : mp4a-40-2
Duration                       : 21 min 44 s
Bit rate mode                  : Constant
Bit rate                       : 128 kb/s
Channel(s)                     : 2 channels
Channel layout                 : L R
Sampling rate                  : 44.1 kHz
Frame rate                     : 43.066 FPS (1024 SPF)
Compression mode               : Lossy
Stream size                    : 19.9 MiB (3%)
Title                          : ISO Media file produced by Google Inc.
Language                       : English
Default                        : Yes
Alternate group                : 1
 

Thanks so much for this! The quality is simply fantastic

Share this post


Link to post
Share on other sites

Translation of the intro:

 

“This was LP's 3rd time at SS. In 2013, Metallica and Muse had been decided as the headlining acts (on alternate days). LP actually requested to perform in 2013, even though they'd be 'under' Metallica, rather than perform in 2014 as had been planned. This was really surprising that the band was okay with it, but that's how we ended up with a 'double headliner'. Their performance was absolutely amazing and the audience was so into it. Actually, after this performance in 2013, they never ended up returning to perform in Japan... due to the passing of Chester in 2017. So that makes this video even more special and important. A particular memory I (Sascha) have is, by 2013 Chester had gotten married. At the end the performance, there were fireworks and Chester's wife came to the side of the stage to wait for the guys. While watching the fireworks, Chester and his wife kissed. The scene was like a beautiful picture! I think the band members were completely satisfied with their performance and that they were able to create great memories for their fans in Japan.”

Share this post


Link to post
Share on other sites

Join the conversation

You can post now and register later. If you have an account, sign in now to post with your account.

Guest
Reply to this topic...

×   Pasted as rich text.   Paste as plain text instead

  Only 75 emoji are allowed.

×   Your link has been automatically embedded.   Display as a link instead

×   Your previous content has been restored.   Clear editor

×   You cannot paste images directly. Upload or insert images from URL.

Sign in to follow this  

×
×
  • Create New...